Gilmore Girls 2016 S01E01 720p WEBRip x264-TheRival (download torrent) - TPB

Details for this torrent 

Gilmore Girls 2016 S01E01 720p WEBRip x264-TheRival
Type:
Video > HD - TV shows
Files:
2
Size:
785.35 MiB (823499939 Bytes)
Info:
IMDB
Spoken language(s):
English
Texted language(s):
English
Uploaded:
2016-11-25 11:53:14 GMT
By:
TheRival Trusted
Seeders:
480
Leechers:
42
Comments
8  

Info Hash:
8BF0B7E65CC5D6B6F288A6DC4487E80C6CFFF99B




(Problems with magnets links are fixed by upgrading your torrent client!)
Video
ID                                       : 1
Format                                   : AVC
Format/Info                              : Advanced Video Codec
Format profile                           : [email protected]
Format settings, CABAC                   : Yes
Format settings, ReFrames                : 4 frames
Codec ID                                 : avc1
Codec ID/Info                            : Advanced Video Coding
Duration                                 : 1 h 30 min
Bit rate                                 : 1 082 kb/s
Width                                    : 1 280 pixels
Height                                   : 720 pixels
Display aspect ratio                     : 16:9
Frame rate mode                          : Constant
Frame rate                               : 23.976 (23976/1000) FPS
Color space                              : YUV
Chroma subsampling                       : 4:2:0
Bit depth                                : 8 bits
Scan type                                : Progressive
Bits/(Pixel*Frame)                       : 0.049
Stream size                              : 698 MiB (89%)
Writing library                          : x264 core 146
Encoding settings                        : cabac=1 / ref=1 / deblock=1:0:0 / analyse=0x1:0x1 / me=dia / subme=1 / psy=1 / psy_rd=1.00:0.00 / mixed_ref=0 / me_range=16 / chroma_me=1 / trellis=0 / 8x8dct=0 / cqm=0 / deadzone=21,11 / fast_pskip=1 / chroma_qp_offset=0 / threads=6 / lookahead_threads=1 / sliced_threads=0 / nr=0 / decimate=1 / interlaced=0 / bluray_compat=0 / constrained_intra=0 / bframes=3 / b_pyramid=2 / b_adapt=1 / b_bias=0 / direct=1 / weightb=1 / open_gop=0 / weightp=1 / keyint=250 / keyint_min=23 / scenecut=40 / intra_refresh=0 / rc=2pass / mbtree=0 / bitrate=1082 / ratetol=1.0 / qcomp=0.60 / qpmin=0 / qpmax=69 / qpstep=4 / cplxblur=20.0 / qblur=0.5 / ip_ratio=1.40 / pb_ratio=1.30 / aq=1:1.00

Audio
ID                                       : 2
Format                                   : AAC
Format/Info                              : Advanced Audio Codec
Format profile                           : LC
Codec ID                                 : 40
Duration                                 : 1 h 30 min
Duration_LastFrame                       : -21 ms
Bit rate mode                            : Constant
Bit rate                                 : 128 kb/s
Channel(s)                               : 2 channels
Channel positions                        : Front: L R
Sampling rate                            : 44.1 kHz
Frame rate                               : 43.066 FPS (1024 spf)
Compression mode                         : Lossy
Stream size                              : 82.8 MiB (11%)
Language                                 : English
Default                                  : Yes
Alternate group                          : 1

Comments

720p My ass. REALLY SHITTY QUALITY, DON'T BOTHER! wait for better uploads
Suck a cock!
So I screwed up when recording this.
My freaking Netflix playback was set to medium so it didn't offer me the highest bitrate that it had... Get over it the rest of the episodes are just fine.
Ow and in case you didn't notice I'm the only one that uploaded... If ettv was gonna upload it they would've done it in the first 2-3 hours that the show came out. So yeah, good luck with that "better" quality thing.
Thank you very much @TheRival.

Ignore the idiots who have never uploaded anything.

I appreciate your timely share, and so do the multiple thousands of peers even if they don't take the time to say a simple thank you.
Ty @TheRival
you're the reason thousands are getting to see this today
just ignore negative comments they don't deserve a reply
keep up the good work
Yes, thank you for this! (Ignore the trolls!)
Gracias.
@thevoid99
De nada :)
And that's about 1 expression out of 4 I know in Spanish lol